Skip to main content

Dopapod Live at The Spot Underground on 2014-02-26

by Dopapod



*** This is a 24 bit recording, not intended for CD Burning ***

Dopapod
2014-02-26
The Spot Underground
Providence, RI

DPA 4011 > V3 Digital + SBD > R44 (24/96)
SDHC Card > Sound Forge Pro 10.0 (Mix, Normalize, fades) > CD Wav (tracking) > TLH > Flac (level 8)
DFC/ORTF/approx. 8' high

Taped and Transferred by Brian V.

Set 1

01. Intro
02. Cloud World
03. Braindead
04. Hey Zeus! (¿Que Tal?)
05. banter
06. Nerds
07. Eight Years Ended$ >
08. French Bowling
09. Carolina#
10. Squarefoot&
11. Flipped

Set 2

01. Buckingham Green@
02. Freight Train
03. Bats In The Cave
04. My Elephant Vs. Your Elephant
05. Sleeping Giant
06. Roid Rage
07. New James%
08. Upside of Down


Collection Dopapod
Band/Artist Dopapod
Venue The Spot Underground
Location Providence, RI

Source DPA 4011 > V3 Digital + SBD > R44 (24/96)
Lineage SDHC Card > Sound Forge Pro 10.0 (Mix, Normalize, fades) > CD Wav (tracking) > TLH > Flac (level 8)
Taped by Brian V.
Transferred by Brian V.

Notes

$ - unfinished; contained "Roads" (Portishead) teases
# - dedicated to mkdevo
& - Rudder cover
@ - Ween cover, first time played
% - with Eric Bloom (Lettuce) on trumpet

thanks to Luke for the SBD Feed
***Support Bands That Allow Taping/Trading***

shntool output
length expanded size cdr WAVE problems fmt ratio filename
3:46.973 130736684 B cxx -- ---xx flac 0.4741 dopapod2014-02-26s1t01.flac
9:52.760 341429804 B cxx -- ---xx flac 0.5762 dopapod2014-02-26s1t02.flac
10:48.533 373555244 B cxx -- ---xx flac 0.5695 dopapod2014-02-26s1t03.flac
4:09.720 143838764 B cxx -- ---xx flac 0.5411 dopapod2014-02-26s1t04.flac
1:32.640 53360684 B cxx -- ---xx flac 0.5056 dopapod2014-02-26s1t05.flac
5:03.600 174873644 B cxx -- ---xx flac 0.5672 dopapod2014-02-26s1t06.flac
16:35.307 573296684 B cxx -- ---xx flac 0.5698 dopapod2014-02-26s1t07.flac
10:28.147 361812524 B cxx -- ---xx flac 0.5572 dopapod2014-02-26s1t08.flac
3:27.933 119769644 B cxx -- ---xx flac 0.4947 dopapod2014-02-26s1t09.flac
6:12.453 214533164 B cxx -- ---xx flac 0.5677 dopapod2014-02-26s1t10.flac
12:34.573 434634284 B cxx -- ---xx flac 0.5542 dopapod2014-02-26s1t11.flac
4:03.400 140198444 B cxx -- ---xx flac 0.5401 dopapod2014-02-26s2t01.flac
10:32.280 364193324 B cxx -- ---xx flac 0.5650 dopapod2014-02-26s2t02.flac
16:44.907 578826284 B cxx -- ---xx flac 0.5770 dopapod2014-02-26s2t03.flac
13:13.213 456890924 B cxx -- ---xx flac 0.5629 dopapod2014-02-26s2t04.flac
7:01.360 242703404 B cxx -- ---xx flac 0.5648 dopapod2014-02-26s2t05.flac
9:28.027 327183404 B cxx -- ---xx flac 0.5695 dopapod2014-02-26s2t06.flac
7:13.747 249838124 B cxx -- ---xx flac 0.5695 dopapod2014-02-26s2t07.flac
10:06.171 349154348 B cxx -- ---xx flac 0.5644 dopapod2014-02-26s2t08.flac
162:55.744 5630829380 B 0.5614 (19 files)

Reviews

Reviewer: Brian V. - - March 1, 2014
Subject: Re: Sources
Please elaborate.
the source field is filled in (as is the lineage)
DPA 4011 > V3 Digital + SBD > R44 (24/96)

The description lists the source info and the text file also has the source info.
I'm confused on what you are looking for that is not already there.
thanks for listening.
Reviewer: rhcp1253 - - March 1, 2014
Subject: Sources
Can you label your sources?
DOWNLOAD OPTIONS
In Collection
Dopapod
In Collection
Live Music Archive
Uploaded by
Brian V.
on 3/1/2014
Views
246
Reviews
2
PEOPLE ALSO FOUND
Dopapod
by Dopapod
32
0
0
Source: DPA 4011 > V3 Digital > R44 (24/96)
Dopapod
by Dopapod
96
0
0
Source: DPA 4011 > V3 Digital > R44 (24/96)
Dopapod
98
0
0
Source: Oktava mk 012 + SBD > R4 (24/48)
Dopapod
by Dopapod
37
0
0
Source: DPA 4011 > V3 Digital + SBD > R44 (24/96)
Dopapod
by Dopapod
51
0
0
Source: DPA 4011 > V3 Digital + SBD > R44 (24/96)
Dopapod
by Dopapod
47
0
0
Source: DPA 4011 > V3 Digital > R44 (24/96)
Dopapod
by Dopapod
246
0
2
( 2 reviews )
Source: DPA 4011 > V3 Digital + SBD > R44 (24/96)
Dopapod
by Dopapod
106
0
0
Source: DPA 4011 > V3 Digital + SBD > R44 (24/48)
Dopapod
by Dopapod
43
0
0
Source: DPA 4011 > V3 Digital > + SBD > DR-680 (24/96)
Dopapod
by Dopapod
90
0
0
Source: DPA 4011 > V3 Digital + SBD > DR680 (24/48)